#TITLE:Missing U;
#SUBTITLE:Tony;
#ARTIST:FT.Island;
#TITLETRANSLIT:;
#SUBTITLETRANSLIT:;
#ARTISTTRANSLIT:;
#CREDIT:Tony;
#BANNER:missing u-bn.jpg;
#BACKGROUND:missing u-bg.jpg;
#LYRICSPATH:;
#CDTITLE:missing u.png;
#MUSIC:Missing U.ogg;
#OFFSET:-0.400;
#SAMPLESTART:45.260;
#SAMPLELENGTH:12.000;
#SELECTABLE:YES;
#DISPLAYBPM:140.000;
#BPMS:0.000=140.000,250.000=280.000,250.375=70.000,250.667=280.000,251.146=70.000,251.333=280.000,251.729=70.000,251.875=140.000,302.083=138.000,307.833=137.000,307.917=140.000,311.833=140.000,323.833=137.000,327.333=70.000,327.521=280.000,327.542=280.000,327.750=140.000,331.000=70.000,331.188=280.000;
#STOPS:;
#BGCHANGES:;
// cache tags:
#FIRSTBEAT:0.500;
#LASTBEAT:339.000;
#SONGFILENAME:Songs/SDO pack 4/Missing U/Missing U.sm;
#HASMUSIC:1;
#HASBANNER:1;
#MUSICLENGTH:146.465;
// end cache tags

//---------------dance-single - ----------------
#NOTES:
     dance-single:
     :
     Hard:
     13:
     1.000,1.000,1.000,1.000,0.782,763.000,306.000,213.000,14.000,129.000:
0000
0220
0000
0000
0000
0000
0000
0000
,
0000
0000
0000
0000
,
1331
0000
0010
0100
0010
0100
0010
0100
0010
0000
0010
0000
1001
0000
0100
0000
,
1201
0010
1301
0100
1010
0010
0101
1000
,
2100
0000
0001
0010
0001
0010
0001
3010
1001
0000
0001
0000
1001
0000
0110
0000
,
1210
0001
0311
1000
1100
0001
0011
0110
,
2011
0000
0010
0001
3010
1001
0110
1001
0110
0000
0010
0001
1010
0000
0100
0000
,
0011
1100
1001
0011
1001
1100
1001
0110
,
1201
0000
0010
0001
1310
0101
1010
0101
1010
0000
1100
0000
0011
0000
0110
0000
,
1100
0010
0101
1100
0001
0010
1001
0010
,
0202
0000
2000
0000
0320
0003
3200
0000
,
1331
0000
0000
0000
0001
0100
0010
1000
,
1100
0000
0010
0100
1001
0000
0001
0010
,
1100
0000
1000
0000
1100
0100
0010
0001
,
0011
0000
1000
0100
1010
0010
0001
0010
,
0101
0000
0100
0010
1000
0000
0001
0010
,
0011
0000
0100
0010
1000
0010
0000
0000
,
0011
0000
0100
1000
0000
0010
0000
1000
,
1100
0000
0000
0000
0000
0000
0000
0000
0000
0000
0000
0000
0001
0010
0100
0000
1001
0000
0000
0000
0000
0000
0000
0000
1000
0000
0000
0000
0000
0000
0000
0000
,
1200
0000
0001
0000
0011
1300
0100
0010
,
1001
0000
1001
0010
1100
0000
1010
0000
,
1001
0000
0102
0000
0110
0000
0103
0010
,
2101
0000
0001
0000
3121
0000
0100
0001
,
1231
1010
0311
0101
,
1021
1000
1100
0031
,
1010
0000
1010
0000
1010
0000
0011
0000
1100
0000
1001
0000
0101
0000
0011
1000
,
1100
0000
0100
0010
0100
0010
0100
0010
1000
0000
0100
0001
0011
0000
0100
0000
,
1202
0013
1302
0103
1002
1003
1200
0310
,
1201
1000
0001
0010
1300
0100
0001
0010
1100
0000
0100
0000
1010
0000
0001
0000
,
0021
1030
1020
0031
0021
1030
1200
0310
,
0121
0001
1000
0100
1031
0010
0100
0010
0201
0000
0310
0000
0201
0000
1300
0000
,
2210
3010
2301
3100
2011
3100
2010
3100
,
1012
0010
1000
0100
1013
0001
0010
0001
0210
0000
0310
0000
1201
0000
0310
0000
,
2021
0000
0031
0000
3102
0003
0002
0000
2010
0000
3103
0000
2000
0000
3001
0000
,
2201
0000
3011
0000
2311
0000
3010
0010
2101
0100
3001
0100
1020
0001
0130
0010
,
1201
0010
1302
0013
0102
1003
1102
0103
,
1210
1000
0001
0001
0310
0010
0100
0100
1001
0000
0020
0000
0231
0000
0302
0000
,
2010
3103
0201
0320
2031
3200
2301
3002
,
0100
0010
0100
0010
1000
0100
0013
0001
0110
0000
0110
0000
1101
0000
1001
0000
,
1021
0100
1031
1000
1100
0010
0101
1000
,
2101
0001
0010
0100
3011
1000
0100
0010
1001
0000
1000
0000
1100
0000
0010
0000
,
0121
0100
1001
1000
0131
0010
0101
0001
,
0012
0000
1000
0100
0023
0000
0100
0000
0230
0000
0010
0001
0310
1000
0101
0010
,
1101
0000
0100
0000
1001
0000
0010
0000
1001
0000
0001
0010
0100
0000
0010
0000
,
1100
0000
2000
3200
2300
0000
0000
0000
0000
0000
3100
0000
1010
0000
0001
0000
,
0011
0000
0002
0023
0132
0000
1000
0000
0103
0000
1000
0100
0010
0000
0001
0000
,
0200
0320
0230
0320
2030
0000
0100
0010
3101
0000
1000
0000
1100
0000
0110
0000
,
1022
0000
2003
3200
2330
0000
0001
3000
1010
0000
0100
0001
0110
0000
0001
0000
,
2210
0000
3020
0032
2303
0000
0001
0000
3110
0000
0100
0010
0110
0000
0000
0000
,
1011
1101
0111
1110
1011
0111
1101
0111
,
1101
0000
0100
0000
0100
0010
1000
0000
1000
0000
0000
0001
0110
0010
0001
0010
,
1010
0100
0010
0001
0101
0010
0100
1000
1010
0100
0010
0001
0101
0010
0100
1000
,
1011
0100
0010
0001
0011
0100
1000
0100
0011
0001
0100
0010
1101
0010
0100
0010
,
1100
0010
1001
0010
1100
1000
0101
0010
1100
0010
1001
0100
1010
0001
0010
0100
,
1100
1000
0101
0010
1010
0001
1010
0010
0101
1000
0101
0010
1101
1000
0011
0100
,
1011
0100
1010
0001
1010
0100
1010
0001
1010
0100
1010
0001
1010
0100
1010
0001
,
0110
1000
0110
0001
0110
1000
0110
0001
0110
1000
0110
0001
0110
1000
0110
1000
,
1011
0100
0012
0100
1000
0100
0010
0100
1000
0100
0010
0103
1011
0100
1010
0100
,
0011
0100
1010
0001
1110
0010
0100
1000
0100
0010
0001
0010
1001
0000
0100
0010
,
1001
0000
0010
0000
1001
0000
0100
0000
1001
0000
0001
0010
0100
0000
0010
0000
,
2201
0000
3001
0001
0302
0000
0010
1003
0110
0000
0110
0000
0011
0000
1100
0000
,
1022
0000
1003
1000
2031
0000
0010
3000
1001
0000
1000
0100
0010
0000
0100
0000
,
0222
0000
0000
0000
0000
0000
0000
0000
0000
0000
0000
0000
2003
0000
0000
0000
0000
0000
0000
0000
0000
0000
0000
0000
3032
0000
0000
0000
0000
0000
0000
0000
0000
0000
0000
0000
0023
0000
0000
0000
0000
0000
0000
0000
0000
0000
0000
0000
1332
0000
0000
0000
0000
0000
0000
0000
0000
0000
0000
0000
0003
0000
0000
0000
0000
0000
0000
0000
0000
0000
0000
0000
0001
0000
0000
0000
0000
0000
0000
0000
0000
0000
0000
0000
0010
0000
0000
0000
0000
0000
0000
0000
0000
0000
0000
0000
1100
0000
0000
0000
0000
0000
0000
0000
0000
0000
0000
0000
0000
0000
0000
0000
0000
0000
0000
0000
0000
0000
0000
0000
0000
0000
0000
0000
0000
0000
0000
0000
0110
0000
0000
0000
0000
0000
0000
0000
0000
0000
0000
0000
0000
0000
0000
0000
0000
0000
0000
0000
0000
0000
0000
0000
0000
0000
0000
0000
0000
0000
0000
0000
1001
0000
0000
0000
0000
0000
0000
0000
0000
0000
0000
0000
0000
0000
0000
0000
0000
0000
0000
0000
0000
0000
0000
0000
0000
0000
2201
0000
0000
0000
0000
0000
,
0000
3000
0002
0323
0230
0000
0000
0000
1300
0000
1000
0100
0010
0000
0101
0000
,
2202
3000
0023
0032
2303
0000
0000
0000
3110
0000
0010
0001
0110
0000
1000
0000
,
1011
0111
1110
0111
1011
1101
0111
1110
,
0111
0000
1011
0000
1110
0001
0010
0001
1010
0100
0001
0100
1010
1000
1010
1000
,
0121
0000
0100
0000
1031
0000
0100
0000
1100
0000
0010
0000
1001
0000
0100
0010
,
2001
0010
3101
1000
1100
0010
0101
0002
,
1100
0000
0010
0003
0101
0000
1000
0000
1001
0000
0001
0010
1100
0000
0010
0000
,
1201
0001
0010
1000
0011
0010
1000
1000
1301
0000
0010
0000
0101
0000
1000
0000
,
1021
0100
1001
0031
0101
0010
0101
1000
,
2101
0001
0100
0100
3010
0010
1000
1000
0011
0000
0100
0000
1001
0000
0100
0000
,
1010
0100
1010
0001
1010
0100
1010
0001
,
1000
0000
0010
0000
0101
0000
1001
0010
0100
1000
0100
0010
1001
0000
0001
0010
,
0200
0000
0000
0000
0000
0000
0000
0000
0000
0000
0000
0000
0000
0000
0000
0000
0000
0000
0000
0000
0000
0000
0000
0000
0000
0000
0000
0000
0000
0000
0000
0000
0000
0000
0000
0000
0000
0000
0000
0000
0000
0000
0000
0000
0000
0000
0000
0000
0000
0000
0000
0000
0000
0000
0000
0000
0000
0000
0000
0000
0000
0000
0000
0000
0000
0000
0000
0000
0000
0000
0000
0000
0000
0000
0000
0000
0000
0000
0000
0000
0000
0000
0000
0000
0000
0000
0000
0000
0000
0000
0000
0000
0000
0000
0000
0000
0000
0000
0000
0000
2002
0000
0000
0000
0000
0000
3003
0000
0000
0000
0000
0000
0000
0000
0000
0000
0000
0000
0000
0000
0000
0000
0000
0000
0020
0000
0000
0000
0000
0000
0030
0000
0000
0000
0000
0000
0000
0000
0000
0000
0000
0000
0000
0000
0000
0000
0000
0000
2002
0000
0000
0000
0000
0000
3303
0000
0000
0000
0000
0000
0000
0000
0000
0000
0000
0000
0000
0000
0000
0000
0000
0000
0200
0000
0000
0000
0000
0000
0300
0000
0000
0000
0000
0000
0000
0000
0000
0000
0000
0000
0000
0000
,
0000
0000
0000
0000
2002
0000
0000
0000
0000
0000
3003
0000
0000
0000
0000
0000
0000
0000
0000
0000
0000
0000
0000
0000
0000
0000
0000
0000
0002
0000
0000
0000
0000
0000
0003
0000
0000
0000
0000
0000
0020
0000
0000
0000
0000
0000
0030
0000
0000
0000
0000
0000
0200
0000
0000
0000
0000
0000
0000
0000
0000
0000
0000
0000
0000
0000
0000
0000
0000
0000
0300
0000
0000
0000
0000
0000
0000
0000
0000
0000
0000
0000
0000
0000
0000
0000
0000
0000
0200
0000
0000
0000
0000
0000
0300
0000
0000
0000
0000
0000
0000
0000
0000
0000
0000
0000
0000
0000
0000
0000
0000
0000
0200
0000
0000
0000
0000
0000
0300
0000
0000
0000
0000
0000
0000
0000
0000
0000
0000
0000
0000
0000
0000
0000
0000
0000
0200
0000
0000
0000
0000
0000
0300
0000
0000
0000
0000
0000
0000
0000
0000
0000
0000
0000
0000
0000
0000
0000
0000
0000
0200
0000
0000
0000
0000
0000
0300
0000
0000
0000
0000
0000
0000
0000
0000
0000
0000
0000
0000
0000
0000
0000
0000
0000
2020
0000
0000
0000
0000
0000
3030
0000
,
0000
0000
0000
0000
0000
0000
0000
0000
0000
0000
0000
0000
0000
0000
0000
0000
0200
0000
0000
0000
0000
0000
0300
0000
0000
0000
0000
0000
0020
0000
0000
0000
0000
0000
0030
0000
0000
0000
0000
0000
0002
0000
0000
0000
0000
0000
0003
0000
0000
0000
0000
0000
0000
0000
0000
0000
0000
0000
0000
0000
0000
0000
0000
0000
0002
0000
0000
0000
0000
0000
0003
0000
0000
0000
0000
0000
0000
0000
0000
0000
0000
0000
0000
0000
0000
0000
0000
0000
2020
0000
0000
0000
0000
0000
3030
0000
0000
0000
0000
0000
0000
0000
0000
0000
0000
0000
0000
0000
0000
0000
0000
0000
0200
0000
0000
0000
0000
0000
0300
0000
0000
0000
0000
0000
0000
0000
0000
0000
0000
0000
0000
0000
0000
0000
0000
0000
2020
0000
0000
0000
0000
0000
3030
0000
0000
0000
0000
0000
0000
0000
0000
0000
0000
0000
0000
0000
0000
0000
0000
0000
0002
0000
0000
0000
0000
0000
0003
0000
0000
0000
0000
0000
0000
0000
0000
0000
0000
0000
0000
0000
0000
0000
0000
0000
2020
0000
0000
0000
0000
0000
3030
0000
,
0000
0000
0000
0000
0000
0000
0000
0000
0000
0000
0000
0000
0000
0000
0000
0000
2200
0000
0000
0000
0000
0000
3300
0000
0000
0000
0000
0000
0220
0000
0000
0000
0000
0000
0330
0000
0000
0000
0000
0000
0022
0000
0000
0000
0000
0000
0033
0000
0000
0000
0000
0000
0020
0000
0000
0000
0000
0000
0030
0000
0000
0000
0000
0000
0200
0000
0000
0000
0000
0000
0300
0000
0000
0000
0000
0000
0200
0000
0000
0000
0000
0000
0300
0000
0000
0000
0000
0000
0220
0000
0000
0000
0000
0000
0330
0000
0000
0000
0000
0000
0000
0000
0000
0000
0000
0000
0000
0000
0000
0000
0000
0000
0020
0000
0000
0000
0000
0000
0030
0000
0000
0000
0000
0000
0000
0000
0002
0000
0000
0000
0000
0000
0003
0000
0000
0000
2020
0000
0000
0000
0000
0000
0000
0000
3030
0000
0000
0000
0000
0000
0000
0000
0000
0000
0000
0000
0000
0000
0000
0000
0200
0000
0000
0000
0000
0000
0300
0000
0000
0000
0000
0000
0000
0000
0000
0000
0000
0000
0000
0000
0000
0000
0000
0000
2002
0000
0000
0000
0000
0000
3003
0000
,
0000
0000
0000
0000
0000
0000
0000
0000
0000
0000
0000
0000
0000
0000
0000
0000
0020
0000
0000
0000
0000
0000
0030
0000
0000
0000
0000
0000
0200
0000
0000
0000
0000
0000
0300
0000
0000
0000
0000
0000
2000
0000
0000
0000
0000
0000
3000
0000
0000
0000
0000
0000
0000
0000
0000
0000
0000
0000
0000
0000
0000
0000
0000
0000
0200
0000
0000
0000
0000
0000
0300
0000
0000
0000
0000
0000
0000
0000
0000
0000
0000
0000
0000
0000
0000
0000
0000
0000
2020
0000
0000
0000
0000
0000
3030
0000
0000
0000
0000
0000
0000
0000
0000
0000
0000
0000
0000
0000
0000
0000
0000
0000
0200
0000
0000
0000
0000
0000
0300
0000
0000
0000
0000
0000
0000
0000
0000
0000
0000
0000
0000
0000
0000
0000
0000
0000
2002
0000
0000
0000
0000
0000
3003
0000
0000
0000
0000
0000
0000
0000
0000
0000
0000
0000
0000
0000
0000
0000
0000
0000
0020
0000
0000
0000
0000
0000
0030
0000
0000
0000
0000
0000
0000
0000
0000
0000
0000
0000
0000
0000
0000
0000
0000
0000
0202
0000
0000
0000
0000
0000
0303
0000
,
0000
0000
0000
0000
0000
0000
0000
0000
0000
0000
0000
0000
0000
0000
0000
0000
0200
0000
0000
0000
0000
0000
0300
0000
0000
0000
0000
0000
0020
0000
0000
0000
0000
0000
0030
0000
0000
0000
0000
0000
0002
0000
0000
0000
0000
0000
0003
0000
0000
0000
0000
0000
0020
0000
0000
0000
0000
0000
0030
0000
0000
0000
0000
0000
0002
0000
0000
0000
0000
0000
0003
0000
0000
0000
0000
0000
0020
0000
0000
0000
0000
0000
0030
0000
0000
0000
0000
0000
0002
0000
0000
0000
0000
0000
0003
0000
0000
0000
0000
0000
0000
0000
0000
0000
0000
0000
0000
0000
0000
0000
0000
0000
0002
0000
0000
0000
0000
0000
0003
0000
0000
0000
0000
0000
0000
0000
0000
0000
0000
0000
0000
0000
0000
0000
0000
0000
2002
0000
0000
0000
0000
0000
3003
0000
0000
0000
0000
0000
0000
0000
0000
0000
0000
0000
0000
0000
0000
0000
0000
0000
0200
0000
0000
0000
0000
0000
0300
0000
0000
0000
0000
0000
0000
0000
0000
0000
0000
0000
0000
0000
0000
0000
0000
0000
0220
0000
0000
0000
0000
0000
0330
0000
,
0000
0000
0000
0000
0000
0000
0000
0000
0000
0000
0000
0000
0000
0000
0000
0000
0022
0000
0000
0000
0000
0000
0033
0000
0000
0000
0000
0000
0220
0000
0000
0000
0000
0000
0330
0000
0000
0000
0000
0000
2200
0000
0000
0000
0000
0000
3300
0000
0000
0000
0000
0000
0000
0000
0000
0000
0000
0000
0000
0000
0000
0000
0000
0000
0020
0000
0000
0000
0000
0000
0030
0000
0000
0000
0000
0000
0000
0000
0000
0000
0000
0000
0000
0000
0000
0000
0000
0000
2002
0000
0000
0000
0000
0000
3003
0000
0000
0000
0000
0000
0000
0000
0000
0000
0000
0000
0000
0000
0000
0000
0000
0000
0200
0000
0000
0000
0000
0000
0300
0000
0000
0000
0000
0000
0000
0000
0000
0000
0000
0000
0000
0000
0000
0000
0000
0000
2002
0000
0000
0000
0000
0000
3003
0000
0000
0000
0000
0000
0000
0000
0000
0000
0000
0000
0000
0000
0000
0000
0000
0000
0020
0000
0000
0000
0000
0000
0030
0000
0000
0000
0000
0000
0000
0000
0000
0000
0000
0000
0000
0000
0000
0000
0000
0000
0000
0000
2002
0000
0000
0000
0000
0000
,
0000
0000
0000
0000
0000
0000
0000
3003
,
1221
0000
M00M
000M
M000
000M
M000
000M
,
M330
0M00
00M0
000M
00M0
0M00
M000
0000
;
